<?xml version="1.0" standalone="no"?>
<!DOCTYPE svg PUBLIC "-//W3C//DTD SVG 1.1//EN" "http://www.w3.org/Graphics/SVG/1.1/DTD/svg11.dtd" >
<svg xmlns="http://www.w3.org/2000/svg">
<metadata></metadata>
<defs>
<font id="silkscreen_expandedbold" horiz-adv-x="1000" >
<font-face units-per-em="1050" ascent="840" descent="-210" />
<missing-glyph horiz-adv-x="750" />
<glyph horiz-adv-x="1050" />
<glyph horiz-adv-x="1050" />
<glyph unicode="&#xd;" horiz-adv-x="750" />
<glyph unicode=" "  horiz-adv-x="750" />
<glyph unicode="&#x09;" horiz-adv-x="750" />
<glyph unicode="&#xa0;" horiz-adv-x="750" />
<glyph unicode="!" horiz-adv-x="625" d="M125 250v375h250v-375h-250zM125 125h250v-125h-250v125z" />
<glyph unicode="&#x22;" horiz-adv-x="875" d="M625 375h-500v250h500v-250z" />
<glyph unicode="#" horiz-adv-x="1125" d="M250 0v125h-125v125h125v125h-125v125h125v125h500v-125h125v-125h-125v-125h125v-125h-125v-125h-500z" />
<glyph unicode="$" d="M125 0v125h375v125h-250v125h-125v125h125v125h125v125h250v-125h125v-125h-375v-125h250v-125h125v-250h-250v-125h-250v125h-125z" />
<glyph unicode="%" horiz-adv-x="1125" d="M250 0v250h125v125h-250v250h625v-250h-125v-125h250v-250h-625z" />
<glyph unicode="&#x26;" d="M250 0v125h-125v125h125v125h-125v125h125v125h125v125h250v-125h125v-125h-375v-125h250v-125h-250v-125h375v-125h-125v-125h-250v125h-125z" />
<glyph unicode="'" horiz-adv-x="625" d="M375 375h-250v250h250v-250z" />
<glyph unicode="(" horiz-adv-x="750" d="M250 0v125h-125v375h125v125h250v-125h-125v-375h125v-125h-250z" />
<glyph unicode=")" horiz-adv-x="750" d="M500 125h-125v-125h-250v125h125v375h-125v125h250v-125h125v-375z" />
<glyph unicode="*" horiz-adv-x="1125" d="M375 0v125h-250v125h125v125h-125v125h250v125h250v-125h250v-125h-125v-125h125v-125h-250v-125h-250z" />
<glyph unicode="+" horiz-adv-x="1125" d="M125 250h250v-250h250v250h250v125h-250v250h-250v-250h-250v-125z" />
<glyph unicode="," horiz-adv-x="625" d="M125 0v125h250v-125h-125v-125h-250v125h125z" />
<glyph unicode="-" horiz-adv-x="875" d="M625 250h-500v125h500v-125z" />
<glyph unicode="." horiz-adv-x="500" d="M0 125h250v-125h-250v125z" />
<glyph unicode="/" horiz-adv-x="875" d="M125 0v250h125v125h125v250h250v-250h-125v-125h-125v-250h-250z" />
<glyph unicode="0" d="M250 0v125h-125v375h125v125h375v-125h125v-375h-125v-125h-375zM375 125h125v375h-125v-375z" />
<glyph unicode="1" horiz-adv-x="875" d="M250 500h-125v125h375v-500h125v-125h-500v125h125v375z" />
<glyph unicode="2" d="M125 0v250h125v125h250v125h-375v125h500v-125h125v-125h-125v-125h-250v-125h375v-125h-625z" />
<glyph unicode="3" d="M125 0v125h375v125h-250v125h250v125h-375v125h500v-125h125v-125h-125v-125h125v-125h-125v-125h-500z" />
<glyph unicode="4" d="M125 625v-500h250v-125h250v125h125v125h-125v375h-500z" />
<glyph unicode="5" d="M125 0v125h375v125h-375v375h625v-125h-375v-125h250v-125h125v-125h-125v-125h-500z" />
<glyph unicode="6" d="M250 0v125h-125v375h125v125h375v-125h-250v-125h250v-125h125v-125h-125v-125h-375zM375 125h125v125h-125v-125z" />
<glyph unicode="7" d="M250 0v250h125v125h125v125h-375v125h625v-250h-125v-125h-125v-250h-250z" />
<glyph unicode="8" d="M250 0v125h-125v125h125v125h-125v125h125v125h375v-125h125v-125h-125v-125h125v-125h-125v-125h-375zM375 375h125v125h-125v-125zM375 125h125v125h-125v-125z" />
<glyph unicode="9" d="M250 0v125h250v125h-250v125h-125v125h125v125h375v-125h125v-375h-125v-125h-375zM375 375h125v125h-125v-125z" />
<glyph unicode=":" horiz-adv-x="500" d="M0 250h250v-125h-250v125zM0 500h250v-125h-250v125z" />
<glyph unicode=";" horiz-adv-x="625" d="M125 500h250v-125h-250v125zM125 125v125h250v-125h-125v-125h-250v125h125z" />
<glyph unicode="&#x3c;" horiz-adv-x="875" d="M375 0v125h-125v125h-125v125h125v125h125v125h250v-125h-125v-125h-125v-125h125v-125h125v-125h-250z" />
<glyph unicode="=" horiz-adv-x="875" d="M625 125h-500v125h500v-125zM625 375h-500v125h500v-125z" />
<glyph unicode="&#x3e;" horiz-adv-x="875" d="M625 250h-125v-125h-125v-125h-250v125h125v125h125v125h-125v125h-125v125h250v-125h125v-125h125v-125z" />
<glyph unicode="?" d="M250 125h250v-125h-250v125zM250 250v125h250v125h-375v125h500v-125h125v-125h-125v-125h-375z" />
<glyph unicode="@" horiz-adv-x="1125" d="M250 0zM375 250h375v125h125v125h-125v125h-500v-125h-125v-375h125v-125h500v125h-375v125z" />
<glyph unicode="A" d="M625 500h125v-500h-250v250h-125v-250h-250v500h125v125h375v-125zM375 375h125v125h-125v-125z" />
<glyph unicode="B" d="M125 0v625h500v-125h125v-125h-125v-125h125v-125h-125v-125h-500zM375 375h125v125h-125v-125zM375 125h125v125h-125v-125z" />
<glyph unicode="C" d="M250 0v125h-125v375h125v125h375v-125h125v-125h-250v125h-125v-375h125v125h250v-125h-125v-125h-375z" />
<glyph unicode="D" d="M125 0v625h500v-125h125v-375h-125v-125h-500zM500 500h-125v-375h125v375z" />
<glyph unicode="E" horiz-adv-x="875" d="M625 500h-250v-125h250v-125h-250v-125h250v-125h-500v625h500v-125z" />
<glyph unicode="F" horiz-adv-x="875" d="M125 0v625h500v-125h-250v-125h250v-125h-250v-250h-250z" />
<glyph unicode="G" d="M250 0v125h-125v375h125v125h500v-125h-375v-375h125v250h250v-250h-125v-125h-375z" />
<glyph unicode="H" d="M125 0v625h250v-250h125v250h250v-625h-250v250h-125v-250h-250z" />
<glyph unicode="I" horiz-adv-x="625" d="M125 0v625h250v-625h-250z" />
<glyph unicode="J" d="M250 0v125h-125v125h250v-125h125v500h250v-500h-125v-125h-375z" />
<glyph unicode="K" d="M125 0v625h250v-125h125v125h250v-125h-125v-125h-125v-125h125v-125h125v-125h-250v125h-125v-125h-250z" />
<glyph unicode="L" horiz-adv-x="875" d="M375 125h250v-125h-500v625h250v-500z" />
<glyph unicode="M" horiz-adv-x="1125" d="M125 0v625h250v-125h250v125h250v-625h-250v250h-250v-250h-250z" />
<glyph unicode="N" horiz-adv-x="1125" d="M125 0v625h250v-125h125v-125h125v250h250v-625h-250v125h-125v125h-125v-250h-250z" />
<glyph unicode="O" d="M250 0v125h-125v375h125v125h375v-125h125v-375h-125v-125h-375zM375 125h125v375h-125v-375z" />
<glyph unicode="P" d="M125 0v625h500v-125h125v-125h-125v-125h-250v-250h-250zM375 375h125v125h-125v-125z" />
<glyph unicode="Q" d="M250 0v125h-125v375h125v125h375v-125h125v-375h-125v-125h125v-125h-250v125h-250zM375 125h125v375h-125v-375z" />
<glyph unicode="R" d="M125 0v625h500v-125h125v-125h-125v-250h125v-125h-250v125h-125v-125h-250zM375 375h125v125h-125v-125z" />
<glyph unicode="S" d="M125 0v125h375v125h-250v125h-125v125h125v125h500v-125h-375v-125h250v-125h125v-125h-125v-125h-500z" />
<glyph unicode="T" horiz-adv-x="875" d="M250 0v500h-125v125h500v-125h-125v-500h-250z" />
<glyph unicode="U" d="M250 0v125h-125v500h250v-500h125v500h250v-500h-125v-125h-375z" />
<glyph unicode="V" horiz-adv-x="1125" d="M375 0v125h-125v250h-125v250h250v-250h250v250h250v-250h-125v-250h-125v-125h-250z" />
<glyph unicode="W" horiz-adv-x="1125" d="M250 0v125h-125v500h250v-125h250v125h250v-500h-125v-125h-500z" />
<glyph unicode="X" horiz-adv-x="1125" d="M125 0v125h125v125h125v125h-125v125h-125v125h250v-125h250v125h250v-125h-125v-125h-125v-125h125v-125h125v-125h-250v125h-250v-125h-250z" />
<glyph unicode="Y" horiz-adv-x="1125" d="M375 0v375h-125v125h-125v125h250v-125h250v125h250v-125h-125v-125h-125v-375h-250z" />
<glyph unicode="Z" horiz-adv-x="875" d="M125 0v250h125v125h125v125h-250v125h500v-250h-125v-125h-125v-125h250v-125h-500z" />
<glyph unicode="[" horiz-adv-x="750" d="M125 0v625h375v-125h-125v-375h125v-125h-375z" />
<glyph unicode="\" horiz-adv-x="875" d="M375 0v250h-125v125h-125v250h250v-250h125v-125h125v-250h-250z" />
<glyph unicode="]" horiz-adv-x="750" d="M500 0h-375v125h125v375h-125v125h375v-625z" />
<glyph unicode="^" horiz-adv-x="875" d="M125 375v125h125v125h250v-125h125v-125h-500z" />
<glyph unicode="_" d="M750 -125h-625v125h625v-125z" />
<glyph unicode="`" horiz-adv-x="750" d="M250 375v125h-125v125h250v-125h125v-125h-250z" />
<glyph unicode="a" d="M625 500h125v-500h-250v250h-125v-250h-250v500h125v125h375v-125zM375 375h125v125h-125v-125z" />
<glyph unicode="b" d="M125 0v625h500v-125h125v-125h-125v-125h125v-125h-125v-125h-500zM375 375h125v125h-125v-125zM375 125h125v125h-125v-125z" />
<glyph unicode="c" d="M250 0v125h-125v375h125v125h375v-125h125v-125h-250v125h-125v-375h125v125h250v-125h-125v-125h-375z" />
<glyph unicode="d" d="M125 0v625h500v-125h125v-375h-125v-125h-500zM500 500h-125v-375h125v375z" />
<glyph unicode="e" horiz-adv-x="875" d="M625 500h-250v-125h250v-125h-250v-125h250v-125h-500v625h500v-125z" />
<glyph unicode="f" horiz-adv-x="875" d="M125 0v625h500v-125h-250v-125h250v-125h-250v-250h-250z" />
<glyph unicode="g" d="M250 0v125h-125v375h125v125h500v-125h-375v-375h125v250h250v-250h-125v-125h-375z" />
<glyph unicode="h" d="M125 0v625h250v-250h125v250h250v-625h-250v250h-125v-250h-250z" />
<glyph unicode="i" horiz-adv-x="625" d="M125 0v625h250v-625h-250z" />
<glyph unicode="j" d="M250 0v125h-125v125h250v-125h125v500h250v-500h-125v-125h-375z" />
<glyph unicode="k" d="M125 0v625h250v-125h125v125h250v-125h-125v-125h-125v-125h125v-125h125v-125h-250v125h-125v-125h-250z" />
<glyph unicode="l" horiz-adv-x="875" d="M375 125h250v-125h-500v625h250v-500z" />
<glyph unicode="m" horiz-adv-x="1125" d="M125 0v625h250v-125h250v125h250v-625h-250v250h-250v-250h-250z" />
<glyph unicode="n" horiz-adv-x="1125" d="M125 0v625h250v-125h125v-125h125v250h250v-625h-250v125h-125v125h-125v-250h-250z" />
<glyph unicode="o" d="M250 0v125h-125v375h125v125h375v-125h125v-375h-125v-125h-375zM375 125h125v375h-125v-375z" />
<glyph unicode="p" d="M125 0v625h500v-125h125v-125h-125v-125h-250v-250h-250zM375 375h125v125h-125v-125z" />
<glyph unicode="q" d="M250 0v125h-125v375h125v125h375v-125h125v-375h-125v-125h125v-125h-250v125h-250zM375 125h125v375h-125v-375z" />
<glyph unicode="r" d="M125 0v625h500v-125h125v-125h-125v-250h125v-125h-250v125h-125v-125h-250zM375 375h125v125h-125v-125z" />
<glyph unicode="s" d="M125 0v125h375v125h-250v125h-125v125h125v125h500v-125h-375v-125h250v-125h125v-125h-125v-125h-500z" />
<glyph unicode="t" horiz-adv-x="875" d="M250 0v500h-125v125h500v-125h-125v-500h-250z" />
<glyph unicode="u" d="M250 0v125h-125v500h250v-500h125v500h250v-500h-125v-125h-375z" />
<glyph unicode="v" horiz-adv-x="1125" d="M375 0v125h-125v250h-125v250h250v-250h250v250h250v-250h-125v-250h-125v-125h-250z" />
<glyph unicode="w" horiz-adv-x="1125" d="M250 0v125h-125v500h250v-125h250v125h250v-500h-125v-125h-500z" />
<glyph unicode="x" horiz-adv-x="1125" d="M125 0v125h125v125h125v125h-125v125h-125v125h250v-125h250v125h250v-125h-125v-125h-125v-125h125v-125h125v-125h-250v125h-250v-125h-250z" />
<glyph unicode="y" horiz-adv-x="1125" d="M375 0v375h-125v125h-125v125h250v-125h250v125h250v-125h-125v-125h-125v-375h-250z" />
<glyph unicode="z" horiz-adv-x="875" d="M125 0v250h125v125h125v125h-250v125h500v-250h-125v-125h-125v-125h250v-125h-500z" />
<glyph unicode="{" horiz-adv-x="875" d="M250 0v250h-125v125h125v250h375v-125h-125v-125h-125v-125h125v-125h125v-125h-375z" />
<glyph unicode="|" horiz-adv-x="625" d="M125 -125v875h250v-875h-250z" />
<glyph unicode="}" horiz-adv-x="875" d="M625 250h-125v-250h-375v125h125v125h125v125h-125v125h-125v125h375v-250h125v-125z" />
<glyph unicode="~" d="M125 375v125h125v125h500v-125h-125v-125h-500z" />
<glyph unicode="&#xad;" horiz-adv-x="875" d="M625 250h-500v125h500v-125z" />
<glyph unicode="&#x2000;" horiz-adv-x="375" />
<glyph unicode="&#x2001;" horiz-adv-x="750" />
<glyph unicode="&#x2002;" horiz-adv-x="375" />
<glyph unicode="&#x2003;" horiz-adv-x="750" />
<glyph unicode="&#x2004;" horiz-adv-x="250" />
<glyph unicode="&#x2005;" horiz-adv-x="187" />
<glyph unicode="&#x2006;" horiz-adv-x="125" />
<glyph unicode="&#x2007;" horiz-adv-x="125" />
<glyph unicode="&#x2008;" horiz-adv-x="93" />
<glyph unicode="&#x2009;" horiz-adv-x="150" />
<glyph unicode="&#x200a;" horiz-adv-x="41" />
<glyph unicode="&#x2010;" horiz-adv-x="875" d="M625 250h-500v125h500v-125z" />
<glyph unicode="&#x2011;" horiz-adv-x="875" d="M625 250h-500v125h500v-125z" />
<glyph unicode="&#x2012;" horiz-adv-x="875" d="M625 250h-500v125h500v-125z" />
<glyph unicode="&#x2013;" horiz-adv-x="900" d="M650 250h-525v125h525v-125z" />
<glyph unicode="&#x2014;" horiz-adv-x="1425" d="M1175 250h-1050v125h1050v-125z" />
<glyph unicode="&#x202f;" horiz-adv-x="150" />
<glyph unicode="&#x205f;" horiz-adv-x="187" />
<glyph unicode="&#xe000;" horiz-adv-x="625" d="M0 625h625v-625h-625v625z" />
</font>
</defs>
</svg>
